osu file format v14

[General]
AudioFilename: 002.Birth-airportexpress ;.mp3
AudioLeadIn: 2000
PreviewTime: 196554
Countdown: 0
SampleSet: Soft
StackLeniency: 0.7
Mode: 0
LetterboxInBreaks: 0
WidescreenStoryboard: 0

[Editor]
DistanceSpacing: 1
BeatDivisor: 4
GridSize: 4
TimelineZoom: 0.7999996

[Metadata]
Title:BIRTH
TitleUnicode:BIRTH
Artist:airportexpress feat.Itsuneko
ArtistUnicode:airportexpress feat.伍猫
Creator:Chloe
Version:mint's Normal
Source:神さまのいない日曜日
Tags:IamKwaN Mintong mintong89 kawaiwkyik sunday without god Kamisama no Inai Nichiyoubi
BeatmapID:430464
BeatmapSetID:175241

[Difficulty]
HPDrainRate:4
CircleSize:4
OverallDifficulty:4
ApproachRate:5
SliderMultiplier:1.2
SliderTickRate:1

[Events]
//Background and Video events
0,0,"140522200953.jpg",0,0
//Break Periods
2,78588,88188
2,160254,173521
//Storyboard Layer 0 (Background)
//Storyboard Layer 1 (Fail)
//Storyboard Layer 2 (Pass)
//Storyboard Layer 3 (Foreground)
//Storyboard Sound Samples
//Background Colour Transformations
3,100,163,162,255

[TimingPoints]
44,446.428571428571,4,2,2,50,1,0
8055,333.333333333333,4,2,1,50,1,0
24054,-100,4,2,2,50,0,0
52054,-100,4,2,2,70,0,1
76054,-100,4,2,2,50,0,0
122721,-100,4,2,2,70,0,1
146721,-100,4,2,2,50,0,0
189388,-100,4,2,2,70,0,1
197388,-100,4,2,2,50,0,0
197721,-100,4,2,2,70,0,1
210721,-100,4,2,2,50,0,0

[Colours]
Combo1 : 0,236,0
Combo2 : 31,243,254
Combo3 : 255,23,40
Combo4 : 233,46,228
Combo5 : 255,255,0
Combo6 : 11,175,255

[HitObjects]
219,131,44,6,0,B|132:46|-52:150|59:379|244:311|246:196,1,480,4|2,1:2|0:0,0:0:0:0:
156,196,2722,6,0,L|176:51,1,120,0|2,0:0|0:0,0:0:0:0:
265,152,3615,1,0,0:0:0:0:
343,242,4061,1,2,0:0:0:0:
282,345,4508,1,0,0:0:0:0:
169,303,4954,1,2,0:0:0:0:
256,192,5401,12,0,7633,0:0:0:0:
124,101,8055,6,0,B|111:142|121:184|144:216,1,120,0|8,0:0|3:2,0:0:0:0:
241,146,8721,2,0,B|237:100|260:59|296:37,1,120,0|8,0:0|3:2,0:0:0:0:
346,60,9221,2,0,L|466:48,1,120,2|2,0:0|0:3,0:0:0:0:
504,93,9721,1,8,3:2:0:0:
506,212,10054,1,0,1:2:0:0:
403,149,10388,1,8,1:2:0:0:
311,226,10721,6,0,B|295:275|306:326|335:363,1,120,4|8,1:2|3:2,0:0:0:0:
261,337,11221,2,0,L|125:330,1,120,2|2,0:0|0:3,0:0:0:0:
86,306,11721,1,8,3:2:0:0:
116,253,11888,2,0,B|140:208|143:157|130:112,1,120,2|2,0:0|0:3,0:0:0:0:
105,84,12388,2,0,L|112:19,1,60,8|2,3:2|0:0,0:0:0:0:
169,10,12721,2,0,L|199:67,2,60,0|2|8,1:0|0:0|1:2,0:0:0:0:
167,130,13388,6,0,B|189:177|235:205|282:209,1,120,4|8,1:2|3:2,0:0:0:0:
315,195,13888,2,0,B|355:168|376:125|377:81,1,120,2|2,0:0|0:3,0:0:0:0:
366,36,14388,2,0,L|436:18,1,60,8|2,3:2|0:0,0:0:0:0:
450,138,14888,2,0,L|508:123,2,60,2|8|2,0:3|3:2|0:0,0:0:0:0:
400,247,15554,1,2,0:0:0:0:
400,247,15721,1,8,3:2:0:0:
283,217,16054,6,0,B|237:209|193:227|163:258,1,120,4|8,0:0|1:2,0:0:0:0:
96,343,16721,2,0,B|54:315|40:262|59:218,1,120,4|8,0:0|1:2,0:0:0:0:
109,132,17388,2,0,B|160:109|171:35|171:35|193:100|275:130,1,240,4|4,1:2|1:2,0:0:0:0:
305,143,18221,1,0,0:0:0:0:
359,118,18388,1,8,1:2:0:0:
451,194,18721,6,0,L|434:325,1,120,4|2,1:2|0:0,0:0:0:0:
337,381,19388,2,0,L|326:255,1,120,0|0,0:0|0:0,0:0:0:0:
236,182,20054,2,0,B|194:167|151:173|116:193,1,120,2|0,0:0|0:0,0:0:0:0:
66,218,20554,2,0,L|86:96,1,120,2|2,0:0|0:0,0:0:0:0:
100,41,21054,1,0,0:0:0:0:
218,18,21388,6,0,B|239:60|283:81|325:78,1,120,2|0,0:0|0:0,0:0:0:0:
374,84,21888,2,0,B|418:108|442:153|442:198,1,120,2|0,0:0|0:0,0:0:0:0:
423,236,22388,2,0,B|418:262|428:286|447:302,1,60,2|0,0:0|0:0,0:0:0:0:
408,344,22721,2,0,L|281:333,1,120,0|2,0:0|0:0,0:0:0:0:
170,312,23388,2,0,L|99:306,2,60,2|0|2,0:0|0:0|0:0,0:0:0:0:
259,231,24054,5,4,1:2:0:0:
264,51,24554,1,4,0:0:0:0:
433,110,25054,1,8,0:0:0:0:
312,128,25388,2,0,B|270:156|215:148|181:110|174:67,2,180,4|4|8,0:0|0:0|0:0,0:0:0:0:
433,111,26721,6,0,B|449:152|437:195|409:223,1,120,4|8,1:2|0:0,0:0:0:0:
360,256,27221,1,4,1:2:0:0:
418,360,27554,1,8,0:0:0:0:
297,358,27888,2,0,B|248:358|208:326|194:283,1,120,4|0,1:0|0:0,0:0:0:0:
211,238,28388,2,0,L|223:176,1,60,8|0,0:0|0:0,0:0:0:0:
173,143,28721,2,0,L|162:71,1,60,8|0,0:0|0:0,0:0:0:0:
129,34,29054,1,12,0:0:0:0:
129,34,29388,6,0,B|124:85|80:121|32:120,1,120,4|12,1:2|0:0,0:0:0:0:
2,87,29888,2,0,L|16:230,1,120,0|0,0:0|0:0,0:0:0:0:
41,259,30388,1,12,0:0:0:0:
86,297,30554,2,0,B|133:315|183:302|214:269,1,120,0|0,0:0|0:0,0:0:0:0:
239,236,31054,2,0,L|307:243,1,60,12|0,0:0|0:0,0:0:0:0:
327,189,31388,2,0,L|314:114,2,60,4|0|12,0:0|0:0|0:0,0:0:0:0:
402,95,32054,6,0,B|429:138|429:190|408:231,1,120,4|12,0:0|0:0,0:0:0:0:
387,263,32554,1,0,0:0:0:0:
292,336,32888,1,0,0:0:0:0:
242,304,33054,2,0,L|172:301,1,60,12|0,0:0|0:0,0:0:0:0:
126,325,33388,2,0,B|148:282|148:234|131:193,1,120,4|12,0:0|0:0,0:0:0:0:
17,224,34054,2,0,B|8:175|18:128|41:89,1,120,4|12,1:2|0:0,0:0:0:0:
145,65,34721,6,0,B|183:88|226:92|265:82,1,120,12|8,1:2|1:2,0:0:0:0:
313,54,35221,1,0,0:0:0:0:
365,83,35388,2,0,L|385:213,1,120,12|8,0:0|1:2,0:0:0:0:
388,261,35888,1,0,0:0:0:0:
349,306,36054,2,0,B|305:324|258:318|221:294,2,120,12|8|12,1:2|1:2|0:0,0:0:0:0:
292,199,37054,1,8,1:2:0:0:
238,170,37221,1,4,0:2:0:0:
182,193,37388,6,0,L|57:198,1,120,12|8,1:2|1:2,0:0:0:0:
17,157,37888,2,0,B|5:115|8:72|21:35,2,120,4|4|4,1:2|1:2|1:2,0:0:0:0:
119,94,38888,1,0,0:0:0:0:
119,94,39054,2,0,L|239:89,1,120,12|4,0:0|0:0,0:0:0:0:
359,88,39721,1,12,1:2:0:0:
456,157,40054,6,0,B|458:193|431:218|431:218|469:268|444:333,1,180,4|4,1:2|0:0,0:0:0:0:
397,358,40721,2,0,L|265:348,1,120,8|0,0:0|0:0,0:0:0:0:
202,254,41388,2,0,L|108:271,2,90,4|4|4,1:2|0:0|0:0,0:0:0:0:
251,221,42054,2,0,B|265:171|261:121|244:77,1,120,8|0,0:0|0:0,0:0:0:0:
339,18,42721,6,0,B|391:61|410:128|396:188,1,180,4|4,1:2|0:0,0:0:0:0:
369,233,43388,2,0,L|382:358,1,120,8|0,0:0|0:0,0:0:0:0:
276,294,44054,2,0,L|267:194,2,90,4|0|0,1:2|0:0|0:0,0:0:0:0:
229,332,44721,2,0,B|181:350|130:343|90:318,1,120,8|12,0:0|0:0,0:0:0:0:
103,209,45388,6,0,B|122:163|165:136|210:133,1,120,4|12,1:2|0:0,0:0:0:0:
251,141,45888,1,4,1:2:0:0:
300,31,46221,2,0,L|348:84,1,60,4|8,1:2|0:0,0:0:0:0:
399,84,46554,1,0,0:0:0:0:
445,45,46721,2,0,B|472:83|482:127|478:169,1,120,4|12,1:2|0:0,0:0:0:0:
446,209,47221,1,4,1:2:0:0:
358,290,47554,1,4,0:0:0:0:
311,252,47721,2,0,L|236:247,1,60,12|0,0:0|0:0,0:0:0:0:
197,275,48054,6,0,B|166:231|172:181|172:181|128:190|96:155,1,180,4|0,1:2|0:0,0:0:0:0:
85,98,48721,2,0,B|134:84|154:30|154:30|187:52|234:42,1,180,4|0,1:2|0:0,0:0:0:0:
288,28,49388,6,0,B|362:15|433:39,1,120,4|12,1:2|1:2,0:0:0:0:
393,150,50054,2,0,B|341:157|291:141,2,90,10|10|10,1:2|1:2|1:2,0:0:0:0:
447,125,50721,1,4,1:2:0:0:
447,125,52054,6,0,B|437:170|446:215|467:251,1,120,6|12,1:2|0:0,0:0:0:0:
401,345,52721,2,0,B|367:320|348:283|345:244,1,120,6|14,1:2|1:2,0:0:0:0:
352,183,53221,1,0,0:0:0:0:
307,142,53388,2,0,L|178:134,1,120,6|14,1:2|0:0,0:0:0:0:
135,165,53888,1,2,1:2:0:0:
80,139,54054,2,0,L|70:62,2,60,4|4|12,0:0|0:0|0:0,0:0:0:0:
17,242,54721,6,0,L|30:361,1,120,6|12,1:2|0:0,0:0:0:0:
129,294,55388,2,0,B|167:270|214:271|249:292,1,120,6|12,1:2|0:0,0:0:0:0:
294,319,55888,1,0,0:0:0:0:
350,299,56054,2,0,L|417:311,1,60,6|0,1:2|0:0,0:0:0:0:
458,275,56388,2,0,L|459:213,1,60,14|2,1:2|1:2,0:0:0:0:
462,154,56721,1,6,1:2:0:0:
406,47,57054,1,14,1:2:0:0:
351,73,57221,1,12,1:2:0:0:
296,47,57388,6,0,B|257:70|211:67|177:45,1,120,6|12,1:2|0:0,0:0:0:0:
127,21,57888,2,0,L|136:147,1,120,2|2,1:2|1:2,0:0:0:0:
111,195,58388,2,0,B|88:202|65:200|45:192,1,60,12|0,0:0|0:0,0:0:0:0:
2,159,58721,1,6,1:2:0:0:
23,276,59054,1,14,1:2:0:0:
23,276,59221,2,0,B|68:299|119:293|156:265,1,120,2|0,1:2|0:0,0:0:0:0:
186,240,59721,2,0,L|210:177,1,60,14|0,1:2|0:0,0:0:0:0:
239,132,60054,6,0,L|301:260,1,120,6|14,1:2|1:2,0:0:0:0:
321,292,60554,1,2,1:2:0:0:
379,276,60721,2,0,B|373:238|379:201|393:169,2,90,4|4|4,1:2|1:2|1:2,0:0:0:0:
417,322,61388,2,0,B|463:331|507:308|528:270,1,120,6|12,1:2|0:0,0:0:0:0:
496,161,62054,2,0,L|506:91,1,60,4|10,0:0|1:2,0:0:0:0:
479,46,62388,2,0,L|402:54,1,60,12|10,0:0|1:2,0:0:0:0:
360,66,62721,6,0,B|319:77|277:64|250:35,1,120,6|12,1:2|0:0,0:0:0:0:
184,135,63388,2,0,B|231:133|270:163|285:203,1,120,6|14,1:2|1:2,0:0:0:0:
301,250,63888,1,0,0:0:0:0:
282,306,64054,1,6,1:2:0:0:
176,247,64388,1,14,0:0:0:0:
126,356,64721,2,0,B|76:342|48:291|61:243,1,120,6|12,1:2|0:0,0:0:0:0:
75,209,65221,1,0,0:0:0:0:
91,151,65388,6,0,L|77:29,1,120,6|12,1:2|0:2,0:0:0:0:
188,76,66054,2,0,L|201:195,1,120,6|12,1:2|0:2,0:0:0:0:
237,243,66554,1,0,0:0:0:0:
296,248,66721,2,0,B|358:227|423:237,2,120,6|14|6,1:2|1:2|1:2,0:0:0:0:
205,327,67721,2,0,B|178:331|152:327|129:318,1,60,14|12,1:2|1:2,0:0:0:0:
104,279,68054,6,0,B|129:241|130:195|111:157,1,120,6|12,1:2|0:0,0:0:0:0:
71,121,68554,2,0,B|63:75|84:32|118:7,1,120,2|2,1:2|1:2,0:0:0:0:
167,33,69054,2,0,L|247:26,1,60,12|0,0:0|0:0,0:0:0:0:
284,8,69388,2,0,B|327:21|355:58|359:99,1,120,6|14,1:2|1:2,0:0:0:0:
317,137,69888,2,0,L|326:271,1,120,2|0,1:2|0:0,0:0:0:0:
299,311,70388,2,0,B|276:317|254:316|233:309,1,60,14|0,1:2|0:0,0:0:0:0:
192,274,70721,5,6,1:2:0:0:
131,170,71054,1,12,1:2:0:0:
12,191,71388,2,0,B|2:146|23:101|60:79,1,120,6|12,1:2|1:2,0:0:0:0:
107,61,71888,1,0,0:0:0:0:
163,80,72054,6,0,L|225:75,1,60,6|0,1:2|0:0,0:0:0:0:
281,90,72388,2,0,L|354:84,1,60,12|4,0:0|0:0,0:0:0:0:
400,80,72721,1,4,0:0:0:0:
469,177,73054,1,14,1:2:0:0:
416,285,73388,6,0,B|393:294|368:294|347:287,1,60,6|0,1:2|0:0,0:0:0:0:
304,260,73721,2,0,B|277:252|249:254|226:264,1,60,14|0,1:2|0:0,0:0:0:0:
192,286,74054,1,6,1:2:0:0:
148,174,74388,1,14,1:2:0:0:
58,253,74721,1,4,1:2:0:0:
58,253,74888,1,2,1:2:0:0:
256,192,76054,12,0,78388,0:0:0:0:
194,71,89388,6,0,B|147:40|86:51|50:96|47:145,2,180,4|0|0,1:2|0:0|0:0,0:0:0:0:
159,185,90721,2,0,B|180:231|160:284|113:308|70:301,2,180,0|0|0,0:0|0:0|0:0,0:0:0:0:
277,162,92054,6,0,B|323:131|384:141|421:182|428:230,2,180,0|0|0,0:0|0:0|0:0,0:0:0:0:
226,271,93388,2,0,B|179:294|127:293|83:273,1,120,0|0,0:0|0:0,0:0:0:0:
39,184,94054,2,0,L|27:102,2,60,0|0|0,0:0|0:0|0:0,0:0:0:0:
108,88,94721,6,0,B|175:95|238:73|284:32,2,180,4|4|8,1:2|0:0|0:0,0:0:0:0:
167,192,96054,2,0,B|230:209|281:246|316:295,2,180,4|4|8,0:0|0:0|0:0,0:0:0:0:
46,182,97388,6,0,L|69:306,1,120,4|8,1:2|0:0,0:0:0:0:
115,336,97888,2,0,B|158:350|203:341|236:316,1,120,4|8,1:2|0:0,0:0:0:0:
285,213,98554,1,4,1:0:0:0:
285,213,98888,2,0,B|273:192|269:170|272:148,1,60,0|8,0:0|0:0,0:0:0:0:
301,103,99221,2,0,B|329:88|359:85|388:91,1,60,0|8,0:0|0:0,0:0:0:0:
412,115,99554,1,0,0:0:0:0:
403,174,99721,1,12,0:0:0:0:
443,286,100054,6,0,B|401:306|355:302|318:282,1,120,4|12,1:2|0:0,0:0:0:0:
276,252,100554,2,0,B|238:284|188:291|145:277,1,120,0|0,0:0|0:0,0:0:0:0:
107,260,101054,2,0,L|97:191,1,60,12|0,0:0|0:0,0:0:0:0:
92,140,101388,1,4,0:0:0:0:
182,61,101721,1,12,0:0:0:0:
182,61,101888,2,0,B|188:108|219:144|259:160,1,120,0|0,0:0|0:0,0:0:0:0:
308,160,102388,2,0,B|336:158|360:141|372:118,1,60,12|12,0:0|0:0,0:0:0:0:
396,86,102721,6,0,L|405:223,1,120,4|12,0:0|0:0,0:0:0:0:
405,265,103221,1,0,0:0:0:0:
310,338,103554,1,0,0:0:0:0:
270,293,103721,2,0,L|266:206,1,60,12|0,0:0|0:0,0:0:0:0:
226,188,104054,2,0,B|188:157|133:163|102:198,2,120,4|12|4,0:0|0:0|1:2,0:0:0:0:
171,295,105054,1,12,0:0:0:0:
58,251,105388,6,0,B|21:216|21:159|53:123,1,120,12|0,1:2|0:0,0:0:0:0:
85,100,105888,1,0,0:0:0:0:
139,125,106054,2,0,L|276:110,1,120,12|8,0:0|1:2,0:0:0:0:
303,72,106554,1,0,0:0:0:0:
347,112,106721,2,0,B|332:153|343:196|371:225,1,120,12|8,1:2|1:2,0:0:0:0:
471,288,107388,1,12,0:0:0:0:
500,171,107721,1,8,1:2:0:0:
433,71,108054,6,0,B|410:31|363:14|322:25,1,120,12|8,1:2|1:2,0:0:0:0:
275,45,108554,1,4,1:2:0:0:
189,130,108888,1,4,1:2:0:0:
105,43,109221,1,4,1:2:0:0:
105,43,109388,2,0,B|61:51|30:85|23:125,1,120,12|12,1:2|0:0,0:0:0:0:
77,229,110054,2,0,B|116:248|160:246|196:229,1,120,4|12,0:0|1:2,0:0:0:0:
304,184,110721,6,0,B|337:144|335:79|335:79|361:112|412:121,2,180,4|4|0,1:2|0:0|0:0,0:0:0:0:
230,279,112054,2,0,L|249:372,2,90,4|4|4,1:2|0:0|0:0,0:0:0:0:
201,242,112721,2,0,B|156:222|108:228|70:253,1,120,8|0,0:0|0:0,0:0:0:0:
14,147,113388,6,0,B|46:106|100:93|145:109,1,120,4|0,1:2|0:0,0:0:0:0:
233,142,114054,1,8,0:0:0:0:
321,60,114388,1,0,0:0:0:0:
416,132,114721,2,0,L|517:122,2,90,4|0|0,1:2|0:0|0:0,0:0:0:0:
364,163,115388,2,0,B|350:204|365:247|395:273,1,120,8|12,0:0|0:0,0:0:0:0:
315,361,116054,6,0,L|184:358,1,120,4|12,1:2|0:0,0:0:0:0:
150,317,116554,2,0,B|166:268|165:219|151:175,1,120,4|4,1:2|0:0,0:0:0:0:
124,147,117054,2,0,L|131:82,1,60,12|0,0:0|0:0,0:0:0:0:
169,41,117388,2,0,B|215:51|260:46|300:29,1,120,4|12,1:2|0:0,0:0:0:0:
335,70,117888,2,0,B|332:106|379:141|379:141|368:193,1,120,4|4,1:2|0:0,0:0:0:0:
350,229,118388,1,12,0:0:0:0:
466,199,118721,6,0,B|446:260|495:318|495:318|419:338,1,180,8|0,0:0|0:0,0:0:0:0:
386,342,119388,2,0,B|319:356|256:309|249:243,1,180,8|0,0:0|0:0,0:0:0:0:
253,193,120054,2,0,B|211:171|163:177|129:203,1,120,4|12,1:2|1:2,0:0:0:0:
112,313,120721,2,0,B|80:317|50:306|30:284,2,90,10|10|10,1:2|1:2|1:2,0:0:0:0:
167,290,121388,1,4,1:2:0:0:
167,289,122721,6,0,L|306:298,1,120,6|12,1:2|0:0,0:0:0:0:
343,190,123388,2,0,L|223:182,1,120,6|14,1:2|1:2,0:0:0:0:
204,125,123888,1,0,0:0:0:0:
168,77,124054,2,0,B|140:66|111:65|84:71,1,60,6|0,1:2|0:0,0:0:0:0:
51,88,124388,2,0,B|41:115|46:142|60:164,1,60,14|2,0:0|1:2,0:0:0:0:
89,192,124721,2,0,L|77:315,1,120,4|12,0:0|0:0,0:0:0:0:
196,294,125388,6,0,L|212:149,1,120,6|12,1:2|0:0,0:0:0:0:
219,115,125888,1,0,0:0:0:0:
257,69,126054,2,0,B|299:43|348:41|390:59,1,120,6|12,1:2|0:0,0:0:0:0:
411,98,126554,1,0,0:0:0:0:
392,155,126721,2,0,B|352:181|305:185|264:171,2,120,6|14|6,1:2|1:2|1:2,0:0:0:0:
494,218,127721,1,14,1:2:0:0:
420,312,128054,6,0,B|374:330|326:323|288:300,1,120,6|12,1:2|0:0,0:0:0:0:
259,266,128554,2,0,B|222:289|179:294|141:285,1,120,2|2,1:2|1:2,0:0:0:0:
93,251,129054,2,0,L|85:187,1,60,12|0,0:0|0:0,0:0:0:0:
81,131,129388,2,0,B|108:95|152:81|192:89,1,120,6|14,1:2|1:2,0:0:0:0:
237,120,129888,2,0,L|300:115,1,60,2|4,1:2|0:0,0:0:0:0:
345,150,130221,2,0,L|415:146,1,60,0|14,0:0|1:2,0:0:0:0:
436,262,130721,6,0,L|310:265,1,120,6|14,1:2|1:2,0:0:0:0:
197,286,131388,2,0,L|101:289,2,90,4|4|4,1:2|1:2|1:2,0:0:0:0:
231,236,132054,2,0,B|247:174|234:111,1,120,6|12,1:2|0:0,0:0:0:0:
321,33,132721,2,0,B|339:49|348:71|351:92,1,60,4|10,0:0|1:2,0:0:0:0:
361,143,133054,2,0,B|365:169|362:195|352:217,1,60,12|10,0:0|1:2,0:0:0:0:
312,243,133388,6,0,L|320:375,1,120,6|12,1:2|0:0,0:0:0:0:
205,325,134054,2,0,L|197:205,1,120,6|14,1:2|1:2,0:0:0:0:
175,149,134554,1,0,0:0:0:0:
136,102,134721,2,0,B|98:79|51:87|22:116,1,120,6|14,1:2|0:0,0:0:0:0:
90,210,135388,1,6,1:2:0:0:
40,319,135721,1,12,0:0:0:0:
149,368,136054,6,0,L|290:361,1,120,6|12,1:2|0:2,0:0:0:0:
328,362,136554,1,0,0:0:0:0:
383,338,136721,2,0,B|415:308|432:269|435:229,1,120,6|12,1:2|0:2,0:0:0:0:
436,172,137221,1,0,0:0:0:0:
418,114,137388,2,0,L|430:36,1,60,6|0,1:2|0:0,0:0:0:0:
383,13,137721,2,0,L|323:51,1,60,14|2,1:2|1:2,0:0:0:0:
284,81,138054,1,6,1:2:0:0:
185,150,138388,1,14,1:2:0:0:
78,95,138721,6,0,B|51:117|43:154|56:186|80:204,1,120,6|12,1:2|0:0,0:0:0:0:
123,237,139221,2,0,L|247:229,1,120,2|2,1:2|1:2,0:0:0:0:
302,229,139721,1,12,0:0:0:0:
343,272,139888,1,0,0:0:0:0:
323,328,140054,2,0,L|203:335,1,120,6|14,1:2|1:2,0:0:0:0:
143,344,140554,1,2,1:2:0:0:
40,280,140888,1,0,0:0:0:0:
46,220,141054,2,0,L|34:142,1,60,14|0,1:2|0:0,0:0:0:0:
29,100,141388,6,0,B|58:64|106:55|145:72,1,120,6|12,1:2|1:2,0:0:0:0:
235,138,142054,2,0,B|277:162|328:152|358:118,1,120,6|12,1:2|1:2,0:0:0:0:
463,98,142721,2,0,L|454:170,1,60,6|0,1:2|0:0,0:0:0:0:
444,216,143054,2,0,L|452:277,1,60,12|4,0:0|0:0,0:0:0:0:
431,332,143388,2,0,B|409:344|385:348|362:344,2,60,4|12|14,0:0|1:2|1:2,0:0:0:0:
347,246,144054,6,0,B|301:229|253:239|217:267,1,120,6|14,1:2|1:2,0:0:0:0:
116,292,144721,2,0,B|95:253|109:205|144:182,1,120,6|14,1:2|1:2,0:0:0:0:
250,135,145388,1,4,1:2:0:0:
250,135,145554,1,2,1:2:0:0:
256,192,146721,12,0,149388,0:0:0:0:
256,120,152054,6,0,B|218:99|175:96|137:107,1,120,4|8,0:0|0:0,0:0:0:0:
83,212,152721,2,0,L|93:284,2,60,0|4|8,0:0|0:0|0:0,0:0:0:0:
156,307,153388,2,0,B|198:333|249:328|285:302,1,120,4|8,0:0|0:0,0:0:0:0:
311,266,153888,2,0,L|439:252,1,120,4|0,0:0|0:0,0:0:0:0:
490,247,154388,1,8,0:0:0:0:
461,130,154721,6,0,L|387:137,1,60,4|0,1:2|0:0,0:0:0:0:
349,105,155054,2,0,L|274:111,1,60,8|4,0:0|0:0,0:0:0:0:
233,133,155388,2,0,B|208:176|216:227|245:261,1,120,4|12,0:0|0:0,0:0:0:0:
255,365,156054,2,0,B|183:374|119:319|116:248,2,180,4|4|4,1:2|1:2|1:2,0:0:0:0:
372,336,157388,6,0,L|385:264,1,60,4|0,1:0|0:0,0:0:0:0:
426,236,157721,2,0,L|419:151,1,60,8|4,0:0|0:0,0:0:0:0:
390,124,158054,2,0,B|355:97|310:94|274:110,1,120,0|8,0:0|0:0,0:0:0:0:
256,192,158554,12,4,160054,1:2:0:0:
251,101,174721,6,0,B|213:70|161:70|124:95,1,120,4|0,1:0|0:0,0:0:0:0:
186,200,175388,2,0,B|224:231|276:231|313:206,1,120,2|0,0:0|0:0,0:0:0:0:
406,160,176054,1,0,0:0:0:0:
406,160,176721,2,0,L|420:284,1,120,2|0,0:0|0:0,0:0:0:0:
322,350,177388,6,0,L|308:224,1,120,0|0,0:0|0:0,0:0:0:0:
216,154,178054,1,2,0:0:0:0:
112,214,178388,1,0,0:0:0:0:
34,122,178721,2,0,B|26:79|43:38|74:12,1,120,2|0,0:0|0:0,0:0:0:0:
125,41,179221,2,0,L|265:31,1,120,2|0,0:0|0:0,0:0:0:0:
304,26,179721,1,2,0:0:0:0:
361,131,180054,6,0,L|239:140,1,120,4|0,0:0|0:0,0:0:0:0:
135,197,180721,2,0,B|126:222|129:248|139:269,1,60,4|0,0:0|0:0,0:0:0:0:
184,288,181054,2,0,L|254:282,1,60,0|0,0:0|0:0,0:0:0:0:
304,281,181388,2,0,B|355:275|393:239|406:194,1,120,4|0,0:0|0:0,0:0:0:0:
496,146,182054,2,0,L|512:217,1,60,4|0,0:0|0:0,0:0:0:0:
492,262,182388,2,0,L|476:340,1,60,0|0,0:0|0:0,0:0:0:0:
461,377,182721,5,4,0:0:0:0:
377,291,183054,1,12,0:0:0:0:
414,176,183388,1,4,0:0:0:0:
372,63,183721,1,12,0:0:0:0:
268,123,184054,2,0,B|225:151|171:143|137:110,1,120,12|4,1:2|0:0,0:0:0:0:
118,76,184554,2,0,B|73:66|29:91|13:132,1,120,12|4,0:0|0:0,0:0:0:0:
31,181,185054,2,0,L|19:251,2,60,12|4|4,0:0|0:0|1:2,0:0:0:0:
481,348,186721,6,0,B|469:300|472:252|489:210,1,120,6|0,1:2|0:0,0:0:0:0:
390,150,187388,2,0,B|402:198|399:246|382:288,1,120,0|0,0:0|0:2,0:0:0:0:
345,310,187888,1,4,0:0:0:0:
291,282,188054,2,0,L|166:280,1,120,4|0,1:2|0:0,0:0:0:0:
50,275,188721,1,2,0:0:0:0:
116,175,189054,1,10,0:0:0:0:
199,88,189388,6,0,B|225:72|254:65|282:66,1,60,6|0,1:2|0:0,0:0:0:0:
310,90,189721,2,0,L|385:84,1,60,12|0,0:0|0:0,0:0:0:0:
424,61,190054,2,0,B|457:88|474:126|478:164,1,120,6|12,1:2|0:0,0:0:0:0:
453,282,190721,2,0,B|425:316|383:331|343:327,1,120,6|14,1:2|1:2,0:0:0:0:
288,314,191221,1,2,1:2:0:0:
248,268,191388,2,0,L|255:143,1,120,6|14,1:2|1:2,0:0:0:0:
168,65,192054,6,0,L|161:188,1,120,6|12,1:2|0:0,0:0:0:0:
158,244,192554,1,2,1:2:0:0:
214,350,192888,1,2,1:2:0:0:
214,350,193054,2,0,L|286:346,1,60,12|0,0:0|0:0,0:0:0:0:
327,318,193388,2,0,B|364:283|379:234|372:188,1,120,6|14,1:2|1:2,0:0:0:0:
367,151,193888,1,2,1:2:0:0:
455,70,194221,2,0,L|482:125,2,60,0|14|0,0:0|1:2|0:0,0:0:0:0:
407,33,194721,6,0,B|358:23|311:28|268:46,1,120,6|14,1:2|1:2,0:0:0:0:
195,114,195388,2,0,L|101:124,2,90,4|4|4,1:2|1:2|1:2,0:0:0:0:
254,111,196054,2,0,B|274:156|272:205|255:246,1,120,6|12,1:2|0:0,0:0:0:0:
158,291,196721,2,0,L|177:352,1,60,4|10,0:0|1:2,0:0:0:0:
233,364,197054,2,0,L|297:355,1,60,12|10,0:0|1:2,0:0:0:0:
352,349,197388,5,6,1:2:0:0:
455,289,197721,1,4,1:0:0:0:
492,175,198054,2,0,B|509:130|512:83|503:40,1,120,6|14,1:2|1:2,0:0:0:0:
464,13,198554,1,0,0:0:0:0:
413,45,198721,2,0,L|277:42,1,120,6|14,1:2|1:2,0:0:0:0:
213,132,199388,2,0,L|332:134,1,120,4|12,0:0|0:0,0:0:0:0:
433,199,200054,6,0,B|443:242|431:284|405:315,1,120,6|12,1:2|0:2,0:0:0:0:
354,341,200554,1,0,0:0:0:0:
303,308,200721,2,0,L|183:324,1,120,6|12,1:2|0:2,0:0:0:0:
65,344,201388,2,0,B|48:296|53:247|75:206,1,120,6|14,1:2|1:2,0:0:0:0:
116,194,201888,2,0,L|111:75,1,120,2|0,1:2|0:0,0:0:0:0:
108,14,202388,1,14,1:2:0:0:
219,58,202721,6,0,L|226:185,1,120,6|12,1:2|0:0,0:0:0:0:
265,222,203221,2,0,B|304:240|347:232|377:207,1,120,2|2,1:2|1:2,0:0:0:0:
419,163,203721,1,12,0:0:0:0:
497,253,204054,1,6,1:2:0:0:
445,361,204388,1,14,1:2:0:0:
445,361,204554,2,0,L|314:357,1,120,2|0,1:2|0:0,0:0:0:0:
265,351,205054,1,14,1:2:0:0:
171,275,205388,6,0,B|154:228|159:180|181:140,1,120,6|12,1:2|1:2,0:0:0:0:
287,193,206054,2,0,B|302:143|292:91|265:52,1,120,6|12,1:2|1:2,0:0:0:0:
171,21,206721,2,0,L|89:27,1,60,6|0,1:2|0:0,0:0:0:0:
62,60,207054,2,0,B|51:79|49:100|55:119,1,60,12|4,0:0|0:0,0:0:0:0:
79,173,207388,2,0,B|86:199|82:224|70:245,2,60,4|12|14,0:0|1:2|1:2,0:0:0:0:
131,280,208054,6,0,L|253:272,1,120,6|14,1:2|1:2,0:0:0:0:
310,269,208554,1,0,0:0:0:0:
354,229,208721,2,0,B|376:183|383:134|377:87,1,120,6|14,1:2|1:2,0:0:0:0:
496,89,209388,2,0,L|506:194,2,80,4|4|4,1:2|1:2|1:2,0:0:0:0:
436,35,210054,2,0,B|402:6|354:8|322:33,1,120,4|0,0:0|0:0,0:0:0:0:
256,192,210721,12,0,213388,0:0:0:0:
